Profile

Join date: May 16, 2022

About

//TOP\\ Mkv Dts To Ac3 Converter V2 2rar





Download









Mkv Dts To Ac3 Converter V2 2rar


A: The problem isn't the missing.ac3 extension. Rather, it is that ffmpeg doesn't interpret a filename with a dash ("-" or "--") as being the start of a path or part of a file extension. A dash in a path or filename is just like an "A" in the beginning of a filename: it's a path delimiter. In this case, the ffmpeg command that's doing the conversion is: ffmpeg -i "res.mp4" -map 0:a -acodec copy "res.ac3" You can see this when you examine the output of ffprobe: $ ffprobe -show_frames "res.mp4" Input #0, mov,mp4,m4a,3gp,3g2,mj2, from'res.mp4': Metadata: major_brand : mp42 minor_version : 0 compatible_brands: isommp42 creation_time : 2017-01-31T16:10:51.000000Z Duration: 00:03:59.60, start: 0.000000, bitrate: 11578 kb/s Stream #0:0(und): Video: h264 (High) (avc1 / 0x31637661), yuv420p, 1280x720 [SAR 1:1 DAR 16:9], 11116 kb/s, 59.98 fps, 59.98 tbr, 60k tbn, 119.88 tbc (default) Metadata: creation_time : 2017-01-31T16:10:51.000000Z handler_name : ISO Media file produced by Google Inc. 16:9 video v9s Stream #0:1(und): Audio: aac (LC) (mp4a / 0x6134706D), 44100 Hz, mono, fltp, 64 kb/s (default) Metadata: creation_time : 2017-01-31T16:10:51.000000Z handler_name : ISO









Utorrent Mkv Dts Full .rar Keygen Pc Final 32bit


be359ba680





 

\/\/TOP\\\\ Mkv Dts To Ac3 Converter V2 2rar

More actions